Index Of Metallica Flac

Mit aktuellen foobar-Versionen (ab 9. Atlas, Rise! 3. Coming Into Being 06. Music Theme Maker - Porntube Adult Funny Video - Lebat Jembut Site Blogspot Com | Nokia 5200 Jogos Download - Blackberry Curve 8310 Iphone Theme - Indian Avi Xboard | Iberry Black Curve. B1 - Sad But True. The recording is a binaural recording intended especially for headphone use. [Flac] Heavy Metal + Cue - Progetto TNTMetal Autore: MotorHeadTitolo: DiscografiaAnno: Anni 1977-2010Genere: Heavy MetalELENCO ALBUM: 1977 Motorhead 1979 Overkill 1979 Bomber 1979 On Parole 1980 Ace Of Spades 1982 Iron Fist 1983 Another Perfect Day 1986 Orgasmatron 1987 Rock'n'Roll 1991 1916 1992 March Or Die 1993 Bastards 1995 Sacrifice 1996 Overnight Sensation 1998 Snake Bite Love 2000 We. 00 Peak level 100. Slice of Life 2. Freeze Frame is a 1979 album by Godley & Creme. flac files (self. Metallica - Metallica (The Black Album) (1991~2015) [24-192] [FLAC HI-Res]. Album information. 3 90480-2 SRC-01. Filename D:RIPCamille And Kennerly - Harp Attack (2013) [FLAC]03 Nothing Else Matters [Metallica]. Forum: FLAC (lossles) Format. mp3 Am I Evil?mp3 Blitzkrieg. Origins 02. 42 MB Metallica - Greatest Hits Volume 1 CD2/Metallica - Master of Puppets. Our passion for music demands that we offer it to our users in the best possible sound quality: lossless (FLAC 16-Bit/44. 6 MB) 06 - Leper Messiah. Metallica is the group's best-selling album to date, selling more than 22 million copies worldwide. Anger (2003) Metallica - Garage Inc. Browstone 4:02 08. com QQ:2031114701. Genre : Alternative Release Date : 2020 Format : Flac (tracks) Quality : Lossless. metallica flac слушать. FLAC frontend (Windows GUI) Flac-Jacket: a set of scripts for creating FLAC files and an HTML index; FLACTAG: tags single album FLAC files with embedded CUE sheets using data from the MusicBrainz service; MacFLAC Mac OS X FLAC distribution; FLACer for Mac OS X; MP3FS, a read-only FUSE filesystem which can transcode FLAC to MP3 on the fly. (Note: I have uploaded both a Lossless. 1 hz,16 bit---Flac versiyonu. 42 MB Metallica - Greatest Hits Volume 1 CD2/Metallica - Master of Puppets. Fight Fire With Fire (4:44) 2. De la violence brute de Battery à l'instrumental et jazzy Orion (un des plus. 3 MB) Master of Puppets. Sophisticated Lady 10. Metallica Bootlegs, Demos, Fan Cans, Compilations Bootlegs dates are year-month-day. The first 10000 fans to register at MatisyahuLive. > 28-Nov-2004 01:02 1. I really do not know anything about mp3 music downloads, so i am looking for a site that is easy, free, to download. 1 versions of the same album on the disc (Metallica "black" album, deep purple "machine head" etc). Simple Plan - Shut U. Yo uso "bitcomet" para bajar torrents, a traves de los torrents puedes bajas discos completos en mp3 o en Flac. Metallica's fifth, self-titled album, often called The Black Album, was released in 1991 and debuted at number one on the Billboard 200. 2 - Georg Solti London Symphony Orchestra and Chorus (Pure DSD) Cootie Williams in Stereo - Cootie Williams on Trumpet and his Orchestra (Pure DSD) John Coltrane Quartet Ballads. Hacking Lg Viewty Ifish Mp3 metallica unforgiven skins de metallica dawnload serial free full symbian games 44918 index of html htm php asp vnes. The Art Garfunkel Album. 1 Khz--MP3 versiyonu 1015 kb/s, 44. mp3 26-Jul-2008 21:40 5. Music critic Mike McGuirk (of the San Francisco Bay. Download album by Metallica with San Francisco Symphony Orchestra - S&M (2000) DTS 5. >>506483931 doombro reporting in here, the whole "i didnt know my $60 soundtrack came with a game" meme turned the norms onto it. For more information on the format, see the FLAC homepage at SourceForge. r/opendirectories: **Welcome to /r/OpenDirectories** Unprotected directories of pics, vids, music, software and otherwise interesting files. Don't Bother Me - 02:33 05. Le troisième album de Metallica est un condensé compact et puissant de maîtrise technique, créativité et de riffs légendaires. Till There Was. Metallica - Metallica (The Black Album) (1991~2015) [24-192] [FLAC HI-Res]. Metallica - 2008 - Death Magnetic [FLAC] {2010 SHM-CD Cardboard Sleeve,Limited Release, UICY94674} 01 - That Was Just Your Life. Opening an output file: out. 2007 - For Emma, Forever Ago {2008 Jagjaguwar 115} - 25-Jan-2016 06:27. Deneme amaçlı Flac indiriyorum ama bryan adams 320kb lik bir Mp3 indireyim dedim. PERFORMER "Metallica" TITLE "Die, Die My Darling" FILE "Metallica - Die, Die My Darling. 09/12/2008 HEART - SECRET HEART ILLUSTRATED. Firewire 410 > Audacity (. @Panama Jack got the scoop on these and was kind enough to let us know. Kfir Ochaion Recommended for you. Of Wolf And Man 10. WAV file from the original recording device. parent directory; Metallica - Garage Inc. No Remorse [04:25] 04. Trapped Under Ice. [Flac] Heavy Metal + Cue - Progetto TNTMetal Autore: MotorHeadTitolo: DiscografiaAnno: Anni 1977-2010Genere: Heavy MetalELENCO ALBUM: 1977 Motorhead 1979 Overkill 1979 Bomber 1979 On Parole 1980 Ace Of Spades 1982 Iron Fist 1983 Another Perfect Day 1986 Orgasmatron 1987 Rock'n'Roll 1991 1916 1992 March Or Die 1993 Bastards 1995 Sacrifice 1996 Overnight Sensation 1998 Snake Bite Love 2000 We. cue), lossless Главная » Зарубежный Metal » Thrash, Speed (lossless) Добавить в закладки. Huffman, The Pirate King 06. The recording of the album was troubled, however, and, during production, the band frequently came into conflict with their new producer Bob Rock. (q: Surrey with the Fringe on Top, Oh! Susanna, incl: Royal March from Aida, Light Cavalry Overture, Mystery Song #3) Anything, Anytime. The Rest Of Us (2019) 1080p WEB-DL H264 AC3-EVO; Spy Intervention (2020) 1080p WEB-DL H264 AC3-EVO; Sadistic Intentions (2019) 1080p WEB-DL H264 AC3-EVO. Adam Dubin Showcases the Camaraderie of the Bay Area Thrash Metal Scene in 'Murder in the Front Row'. Gig Command line compressor : C:\Program Files (x86)\Exact Audio Copy\Flac\flac. Fixed a bug where decoding a FLAC file whose total_samples==0 in the STREAMINFO would corrupt the WAVE header. xilisoft flac converter can help you convert FLAC(Free Lossless Audio Codec) audios into a variety of other audio formats like MP3, AAC, AC3, AIFF, APE, AU, M4A. Trapped Under Ice. Tinsel Town Rebellion. 89 MB | Formato: flac Artista: Metallica | Album: The 5. Fuel [03:58] 02. flac now defaults to -S 10s instead of -S 100x for the seek table. It's So Easy 3:29 07. flac", "03 - Holier Than You. Recording #378. metallica nothing else matters flac скачать. Metallica Metallica (Black Album) 2001 DVD Audio RIP Формат FLAC: 48000 Hz 24 bits 6 channels 01. Netflix and Yarr 08. Exact Audio Copy V1. Fade To Black (6:56) 5. Top 6 sites for buying FLAC music. 4 GB 2019-01-13 7 1 Metallica - The Best of the Best 2017 (2017) MP3. D5 – Sick Again. Wax Tailor - Hope & Sorrow (2007) [FLAC] February 18, 2020. Fue fundada en 1981 en Los Ángeles por Lars Ulrich y James Hetfield, a los que se les unirían Dave Mustaine y Cliff Burton. Recent Entries; 1999-08-28 · Roger Waters @ Kemper Arena, Kansas City · Every Point Of Light · 23 hours ago; 1999-08-28 · Roger Waters @ Kemper Arena, Kansas City · Each Small Candle · 2 days ago; 1999-08-18 · Roger Waters @ Coca-Cola Star Lake Amphitheater, Burgettstown · Starlake Amphitheater · 6 days ago; 1999-08-18 · Roger Waters @ Coca-Cola Star Lake Amphitheater, Burgettstown. The DSD was sourced from the PCM. you won't get higher quality, just larger file sizes. flac", "02 - Sad But True. Search and download from over 6 million songs, music videos and lyrics. Hi-Res Digital Download. Quality: FLAC 16 bit / 44. DiscLogic features bands like Umphrey's McGee, moe. Codec: Free Lossless Audio Codec (FLAC) Version: reference libFLAC 1. Darkness - Earth In Search Of A Sun 02. 50+ videos Play all Mix - [HQ-FLAC] Metallica - The Unforgiven YouTube Metallica - Fade to Black - Electric Guitar Cover by Kfir Ochaion - Duration: 6:45. Tracklist & Download Links. The Last Temptation. PERFORMER "Metallica" REM COMPOSER "" INDEX 01 00:00:00 FILE "04 - Moth Into Flame. Wax Tailor - By Any Beats Necessary (2016) [FLAC] February 18, 2020. Globe Unity Orchestra – Intergalactic Blow (2019) [FLAC 24bit/96kHz] Posted 8 mins ago. Attention légende ! « Master of Puppets » est un album culte, de ceux qui ont influencé (et qui continuent de le faire) toute une génération de musiciens dans le monde entier. As you might think, parameters in this example means, that the track numbers will be forced to a length of 2 digits and numbers less than 10 are filled up with "0". Country: USA Year: 1991 Record Label: Elektra Records Catalog Number: 9 61113-2 Music Genre: Thrash Metal Rip Format: FLAC (Image + Cue + Log) Booklet Scans: Yes Rip Quality: Lossless Size Archive: ~ 462 MB Host: Yadi. Metallica - Master Of Puppets (Deluxe Box Set 10 CD, Remastered) (2017) Thrash Metal | MP3 320 kbps | 1. 1198 downloads at 21 mb/s. Tracklist: 01. Master Of Puppets (8:35) 03. mp3 06 - Escape. I learned that Fluke for Mac is the application to use for this, but it doesn't seem to work in Lion without some fancy maneuvering (converting iTunes to 32 bit, which I don't know how to do). You can read the FLAC file header blocks by using, "metaflac --list file. Anger 2003 S&M 1999 Garage Inc. 1 kHz, 16 bit stereo). Views Last post; PINK FLOYD - The 2011 Remasters Complete Discography FLAC. FLAC is a Free Lossless Audio Codec developed by Josh Coalson. Metallica and the San Francisco Symphony perform a live concert together at Chase Center in San Francisco. Here at Allflac. Fight Fire With Fire 02. Quality: FLAC 16 bit / 44. Music Theme Maker. Anger FLAC 88kHz/24bit Download (1) FLAC 48kHz/24Bit Download (1) Change how search results are displayed. 3 X Track quality 100. Donations are greatly appreciated, and help with the costs of hosting the site and the. For Whom The Bell Tolls 04. Rockanthology 69 was probably the first flac blog eye ever visited at a bud's place before even having broadband. Skip to content. Metallica 1983 San Francisco , CA [AMT] Metallica 1993 San Diego 93 [PRO][Not For Trade] Metallica 1993 Santiago de Chile, Chile [2 Discs][PRO] Metallica 1997 Reading Festival [PRO] Metallica 2004 Rock In Rio, Lisboa, Portugal [PRO] Metallica 2006 Live in Seoul, Korea [HDTV][PRO] Foo Fighters - 2001 Bizarre Festival [DVB][PRO]. Checkpoint 4 09. tags: metallica, the black album, metallica album, 1991, flac, It is an index to content. Tracklist: 01. Metallica _-_ ­ Metallica __Jap­ an_Edition___19­ 91__FLAC__image. De la violence brute de Battery à l'instrumental et jazzy Orion (un des plus. En 1987, el extinto sello canadiense FREEDOM IN A VACUUM lanzaba esta compilación homónima repleta de trabajos de grandes artistas sonoros: TIBETAN RED, ASMUS TIETCHENS, UNKOMMUNITI, THE SODALITY, PSYCLONES, SCHLAFENGARTEN, NURSE WITH WOUND, HIRSCHE NICHT AUF'S SOFA, DOKA BASS BAND. - We do not take requests. File formats: FLAC, WAV, MLP, APE, TTA, ALS, etc. Kfir Ochaion Recommended for you. King Nothing [06:15] 05. Live concert albums of your favorite band. flac) Тип. Le poing serré de la pochette de " St Anger " tient toutes ces promesses. Metallica - Death Magnetic GHIII Remix by Moderus in FLAC If this is your first visit, be sure to check out the FAQ by clicking the link above. Explore some of the most pristine Classical recordings you'll ever hear from com Confessin' That I Love Y Bertice Reading. Simple Plan - Shut U. DiscLogic features bands like Umphrey's McGee, moe. cue,log, covers) | Mp3, CBR 320 kbps (CD-Rip) Tracklist: 01. Metallica - Hardwired…To Self-Destruct (Deluxe) (2016) FLAC Started by KL Bot, November 16, 2016. Metallica (commonly known as The Black Album) is the fifth studio album by American heavy metal band Metallica, released on August 12, 1991, through Elektra Records. GRAM CD 004 MPO 01. Grails 2019. The DSD was sourced from the PCM. r/opendirectories: **Welcome to /r/OpenDirectories** Unprotected directories of pics, vids, music, software and otherwise interesting files. Ginette Reno - The First Noel (2007/2014) [FLAC 24bit/44,1kHz] Posted 8 mins ago. Also i was wondering, if the site says free mp3 music download, does that mean that i can download it and put it to cd?. Wax Tailor - Hope & Sorrow (2007) [FLAC] February 18, 2020. Tracklist: 01. IMAX 3D is the way to go! Almost everyone was amped in the theater and we were all pretty much rocking in our seat and singing along. Download album by Metallica with San Francisco Symphony Orchestra - S&M (2000) DTS 5. wav) > dbPowerAmp (. CDDA radio broadcast disc > WAV Exact Audio Copy & Audacity > FLAC Trader's Little Helper cue sheet included commercials cut Track 1 - 1KC tone (00:40) Track 2 - (22:45) Track 3 - (20:10) Track 4 - (08:58) Track 5 - Promo music bed (00:30) KBFH Index Note: "Vaughan" is mis-spelled several times in the database Show Initial Broadcast Date: 09/25. 2020 intmusic. mp3: Badlands: Dreams in. Marcadores: Kansas. FLAC is available as source code as well as executables for Windows, Linux, Mac, and several other operating systems. FLAC is CD quality (16-bit), so ripping yourself or buying FLAC files is no difference, its excactly the same quality. 16, Zanzabar Louisville, Kentucky Zoom H1 - AT834 - Cardoid Mics - WAV 24/48 - Tracksplitting & Fading w/ Audacity - FLAC. interview 2 06. 1kHz to a flac file (lossless). Firewire 410 > Audacity (. 21 > FLAC 01 Most Likely You Go Your Way (And I'll Go Mine) 02 Lay Lady Lay. Smart Automatic Cover Art Downloader. (Watch Tower Records:: WT 2006153-4) Recorded Live at Nagoya-shi Kokaido, Aichi, Japan - November 26, 1978. It is the best-selling album of the SoundScan era. (q: Surrey with the Fringe on Top, Oh! Susanna, incl: Royal March from Aida, Light Cavalry Overture, Mystery Song #3) Anything, Anytime. The reason I want a cuesheet is, that's where all the CD metadata will be stored. Postagem mais recente Postagem mais antiga Página inicial. Mit aktuellen foobar-Versionen (ab 9. cue,log,scans). 0 % EAC extraction logfile from 5. The first track is a never before released demo from Little Boy Blue & The Blue Boys. flac", "02 - Sad But True. Limitations may depend on the particular artist selling through the site. Scene FLAC Music, muzik, musik scene Club, sets mix, music mp3s, WEB 320kbps Tracks, Private FTP Server, Muaix VIP, Dance Hits, 90s Various artists VA, EDM Live Radio, Music Stream, Electro House, Club Dance Music Mix, Electro House, Deep House, Chill Out, Trap, Bounce and much more. All these file types are lossless file formats. Zaawansowane wyszukiwanie. PERFORMER "Metallica" REM COMPOSER "" INDEX 01 00:00:00 FILE "04 - Moth Into Flame. All Or Nothing At All 08. FLAC frontend (Windows GUI) Flac-Jacket: a set of scripts for creating FLAC files and an HTML index; FLACTAG: tags single album FLAC files with embedded CUE sheets using data from the MusicBrainz service; MacFLAC Mac OS X FLAC distribution; FLACer for Mac OS X; MP3FS, a read-only FUSE filesystem which can transcode FLAC to MP3 on the fly. The Unforgiven 05. mp3: Autograph: Turn Up the Radio: Monsters of Rock, Metal: MPEG 1 Layer III: Badlands - Dreams in the Dark. Metallica - …And Justice for All (Remastered Deluxe Box Set) [2018] (AR v2) Copy OK Track 2 Filename F:Nafta ReleasesRod Stewart - Rarities (2 CD 2013)[FLAC] - NaftamusicCD 12 - Country Comforts (BBC Radio 1 Performance 1970). Mahler Symphony No. 3 is a major release with improved compression, improved cover art and multichannel support, better recovery for corrupted files, many new features and options in the command-line tools, and several bug fixes. x) ist das aber kein großes Problem, da diese eine entsprechend aktuelle FLAC-Library verwenden, welche wesentlich schneller ist als. Artist: Burning Witches Title Of Album: Dance With The Devil [Japanese Edition] Year Of Release: 2020 Label (Catalog#): Ward Records, Inc. Anger (2003) Metallica - Garage Inc. Kfir Ochaion Recommended for you. Yesterday's Tomorrow 05. 00b: June 9 2013 at 19:18: Beatles: 0. 2 - Georg Solti London Symphony Orchestra and Chorus (Pure DSD) Cootie Williams in Stereo - Cootie Williams on Trumpet and his Orchestra (Pure DSD) John Coltrane Quartet Ballads. You will hear the difference only on high quality equipment. interview 1 04. mp3 Phantom Lord. We'll Be Together Again 09. My Michelle 4:22 06. muzyka bezstratna. flac > flac_headers. FLAC (; Free Lossless Audio Codec) is an audio coding format for lossless compression of digital audio, and is also the name of the reference codec implementation. Metallica / First U. Forum: FLAC (lossles) Format. 74 GB Metallica - Master of Puppets [Remastered] [1986-2017] FLAC 388 MB. Marcadores: Kansas. Anger FLAC 88kHz/24bit Download (1) FLAC 48kHz/24Bit Download (1) Change how search results are displayed. 1 kHz / 16 Bit Source: SHM-CD Japan Album Artist: Metallica Album Name: Discography Label, Catalog: Universal Music. Of Wolf And Man 10. cue,log, covers) | Mp3, CBR 320 kbps (CD-Rip) Tracklist: 01. Mastermix DJ Edits Vol. Call Death Magnetic Kirk Hammett's revenge. February 7, 2020: The latest addition to the Vault is up, check out the 2003 show from just outside of Salt Lake City at the USANA Ampitheatre. Largest collection of free music. Enter the world of Lars Ulrich, James Hetfield, Kirk Hammett and Robert Trujillo and experience the intensity and skill of one of the greatest bands of all time. Nothing Else Matters 09. wav" WAVE TRACK 05 AUDIO TITLE "Dream No More" PERFORMER "Metallica" REM COMPOSER "" INDEX 01 00:00:00 FILE "06 - Halo On Fire. 0 MB) 04 - Welcome Home (Sanitarium). If you're looking to buy lossless music in FLAC format, from indie to classical to jazz, here are our favorite sites. The key word in FLAC is “lossless,” which means that audio is encoded in FLAC without losing any of the frequency response, dynamic range or timbre of the original signal. metallica nothing else matters flac скачать. Fade To Black (6:56) 5. Kfir Ochaion Recommended for you. se бесплатно, на высокой скорости и без ограничений любым bit-torrent клиентом. Metallica - 1984 - Jump In The Fire Creeping Death. Metallica Bootlegs, Demos, Fan Cans, Compilations Bootlegs dates are year-month-day. 1 Khz--MP3 versiyonu 1015 kb/s, 44. Also, my WDTV media player can read the cuesheet, so I only need a single flac image file and a cuesheet, for each CD in a set. 39 MB | File count : 1 | Time : 2015-08-14. All songs are in the MP3 format and can be played on any computer or on any MP3 Player including the iPhone. Quality: FLAC 16 bit / 44. metaflac:. 1 > Peak Pro XT (volume smoothing / patch / edit / index) > xACT 2. The DSD was sourced from the PCM. Wenches Ahoy (bonus) 12. Dead End 03. 24-bit acoustic array black sabbath blues bob dylan classic rock echo and the bunnymen emerson lake and palmer eric clapton heavy. You can rip a standard audio CD, 16-bit, 44. 67 GB Metallica were easily the best, most influential heavy metal band of the '80s and '90s. 89 MB | Formato: flac Artista: Metallica | Album: The 5. Fade To Black (6:56) 5. Dgitalizado desde mi copia, procedo a compartir este material en WAV y FLAC. Marcadores: Kansas. Donations are greatly appreciated, and help with the costs of hosting the site and the. - 5:32 Master of Puppets is the third studio. FLAC stands for Free Lossless Audio Codec, an audio format similar to MP3, but lossless, meaning that audio is compressed in FLAC without any loss in quality. Zaawansowane wyszukiwanie. 2020 intmusic. What's missing is that little extra oomph of audiophile high-bit candy to get out that last ounce of dynamics and audio information so that you appreciate. @Panama Jack got the scoop on these and was kind enough to let us know. Rendered audio @24/96 PCM. Zaawansowane wyszukiwanie. Album information. February 15, 2020. se бесплатно, на высокой скорости и без ограничений любым bit-torrent клиентом. The recording is a binaural recording intended especially for headphone use. mp3 04 - Fade To Black. 7 MB) 03 - The Thing That Should Not Be. 9 MB / 187,56 MB. Top 6 sites for buying FLAC music. The CD collection is ripped in 16 Bit / 44. (141723 albums total) 00 01 02 03 04 05 06 07 08 09 10 11 12 13 14+ Sadistic Parasite. Dead Girls of London. metallica flac rutracker. Artist: VA Title: The Many Faces Of Judas Priest (A Journey Through The Inner World Of Judas Priest) Year Of Release: 2017 Label: Music Brokers Genre: Rock, Hard Rock, Hard& Heavy Quality: FLAC (image+. February 20, 2020. Atlas, Rise! 3. According to the terms of the DMCA, these boots infringe upon the copyrights of others: 22/12/2009 DIRE STRAITS - AMERICAN TOUR '95 GUNS 'N' ROSES - LA VIE EN ROSE. 8M Six Feet Under - Gri. Bertice grasps and captivates each member of the audience in this album which wa Diamonds in the Rough. Get access to over 600 exclusive live recordings with a nugs. Anger - 2003 (Vertigo # 060249865359 3), FLAC (tracks+. Love Is Here To Stay. In particular, check out our BitTorrent Help section and our Band Restriction Policy. 6MHz/128fs Download DSD (Quad Rate) 11. Release - November 18, 2016 Genre - Metal Quality - MP3, 320 Kbps Tracklist: Disc 1 1. Metallica is an American heavy metal band. This is a dedicated thread for the back catalog hi-res downloads available on Metallica. Davis Rockfluence / PianotariumЖанр: Piano Год издания диска: 2006-2007 Издатель (лейбл): Scovis Music Productions Страна: Калифорния (родился в Германии) Аудиокодек: FLAC (*. No Remorse [04:25] 04. Download album by Metallica with San Francisco Symphony Orchestra - S&M (2000) DTS 5. The band has won nine Grammy Awards, and has had five consecutive albums debut at number one on the Billboard 200, making Metallica the first band to do so; this record was later matched by the Dave Matthews Band. The DSD was sourced from the PCM. As you might think, parameters in this example means, that the track numbers will be forced to a length of 2 digits and numbers less than 10 are filled up with "0". We only index and link to content provided by other sites. Genre : Alternative Release Date : 2020 Format : Flac (tracks) Quality : Lossless. 1kHz to a flac file (lossless). FLAC (; Free Lossless Audio Codec) is an audio coding format for lossless compression of digital audio, and is also the name of the reference codec implementation. The first 10000 fans to register at MatisyahuLive. FLAC Basics. Pirateship 09. Today, 09:56 musician. And Justice For All 03. interview 2 06. FLAC is a Free Lossless Audio Codec developed by Josh Coalson. JEMS 2015 Transfer: First-generation reel copy (3-3/4 IPS) > Otari 5050 mkII azimuth-adjusted transfer > USBPre 2 > Audacity 2. Credit allows you to download with unlimited speed. by metsdc » Sat Jan 07, 2017 8:21 am 4 Replies 497 Views Last post by ironmaiden89 Wed Apr 08, 2020 1:46 am Guns n Roses Discography 1986 - 2014. Confessin' That I Love You. File formats: FLAC, WAV, MLP, APE, TTA, ALS, etc. flac", "02 - Sad But True. mp3 02 - Ride The Lightning. Quality: FLAC 16 bit / 44. We’ll Be Together Again 09. Notes: Sister site of Downloads Now!. In Vain 11. Metallica: Through the Never could very well reach orgasmic heights for rock fans, everyone else needn't apply. I learned that Fluke for Mac is the application to use for this, but it doesn't seem to work in Lion without some fancy maneuvering (converting iTunes to 32 bit, which I don't know how to do). although there is a clear difference between the flacs and uncompressed audio files, to me. Mastered by George Marino at Sterling Sound from the original master tapes to vinyl and PCM. Trapped Under Ice. A Pound for a Brown on the Bus. The key word in FLAC is “lossless,” which means that audio is encoded in FLAC without losing any of the frequency response, dynamic range or timbre of the original signal. By admin flac-music 2020, Hi. With Edgar Barradas, Kirk Hammett, James Hetfield, Metallica. Master Of Puppets (8:35) 03. The DSD was sourced from the PCM. It might be my favorite Metallica. Hacking Lg Viewty Ifish Mp3 metallica unforgiven skins de metallica dawnload serial free full symbian games 44918 index of html htm php asp vnes. Fightclubindex 21k cached similar. FLAC-HD & ALAC-HD files are 24-bit. - We do not take requests. Album information. Last Entry by davebowman 1989-05-20 - Ark (LDB Vintage Series #085) - FLAC Date Entered: 2020-05-02 11:05:04. Anger - 2003 (Vertigo # 060249865359 3), FLAC (tracks+. If you want to download the entire concert in FLAC, the easiest way is to use the "Lossless zip" link located on the left side of the page where it says, "Play / Download. Famously browbeaten into accepting Lars Ulrich and producers Bob Rock's dictum that guitar solos were "dated" and thereby verboten for 2003's St. Narzędzia forum. Holier Than Thou 04. All I've Got to Do - 02:08 03. All these file types are lossless file formats. ßßÜ ßßÛÜ ß Ü Ü ß ß ß Botanicar [ExYu-Subs] Baby analogkid6103 Freak0370 STBGD K E E P S H A R I N G ----- Metallica-Kill_Em_All-JP_REMASTERED-CD-FLAC-2006-DeVOiD Metallica-Kill_Em_All-Reissue-CD-FLAC-1989-SCORN Metallica-Ride_The_Lightning-JP_REMASTERED-CD-FLAC-2006-DeVOiD Metallica-Ride_The_Lightning-Reissue-CD-FLAC-1989-SCORN. Through The Never 08. FLAC can reduce the size of a typical audio file by up to 50%. Artist: Metallica Title Of Album: Metallica (Japan Edition) Release Date: 2010 (1991) Location: USA Label: Universal Music Japan (UICY-94666) Genre: Thrash Metal, Speed Metal Quality: FLAC (tracks+. Comments Off on Globe Unity Orchestra - Intergalactic Blow (2019) [FLAC 24bit/96kHz] Hi-Res Digital Download. The highest quality of audio that you can download is flac. 1 hz,16 bit---Flac versiyonu. "The Unforgiven" is a power ballad by American heavy metal band Metallica. Fightclubindex 21k cached similar. I am a very big fan of music and so love to hear songs in CD format rather than mp3 format. A Metallica film aimed squarely at those that throw finger-horns and head-bang. Till There Was. For Whom The Bell Tolls (5:10) 4. Hacking Lg Viewty Ifish Mp3 metallica unforgiven skins de metallica dawnload serial free full symbian games 44918 index of html htm php asp vnes. 8M Six Feet Under - Gri. Started by JumpInTheFire. mp3 05 - Trapped Under Ice. mp3 2268 K 21/08/2004 17:06:57 audio/mpeg Metallica - Fade To Black. Metallica have just released a newly-recorded intro to "My Apocalypse", the closing song from last year's Death Magnetic album. [Flac] Heavy Metal + Cue - Progetto TNTMetal Autore: MotorHeadTitolo: DiscografiaAnno: Anni 1977-2010Genere: Heavy MetalELENCO ALBUM: 1977 Motorhead 1979 Overkill 1979 Bomber 1979 On Parole 1980 Ace Of Spades 1982 Iron Fist 1983 Another Perfect Day 1986 Orgasmatron 1987 Rock'n'Roll 1991 1916 1992 March Or Die 1993 Bastards 1995 Sacrifice 1996 Overnight Sensation 1998 Snake Bite Love 2000 We. Pokaż wątki Pokaż posty. Search and download music album covers. Codec: Free Lossless Audio Codec (FLAC) Version: reference libFLAC 1. Tematy na forum. 09/12/2008 HEART - SECRET HEART ILLUSTRATED. I came across www. From what I could tell from some real quick research, Fluke is for Mac systems, not Windows. 3 is a major release with improved compression, improved cover art and multichannel support, better recovery for corrupted files, many new features and options in the command-line tools, and several bug fixes. Gorgoroth-Destroyer - Incipit Satan-Reissue-CD-FLAC-2008-SCORN Description : SCORN —- since 2011 Gorgoroth - Destroyer - Incipit Satan. 74 GB Metallica - Master of Puppets [Remastered] [1986-2017] FLAC 388 MB. interview 2 06. Converting APE to FLAC: no loss of quality? « on: November 01, 2008, 06:34:32 AM » Hi everybody, I have recently installed on my 30 Gigs Ipod Video your wonderful Rockbox software, and I feel like I'm in heaven, since it has given me the double pleasure to escape from the fascist domaination of the Apple Empire and to finally be able to play. 3 is a major release with improved compression, improved cover art and multichannel support, better recovery for corrupted files, many new features and options in the command-line tools, and several bug fixes. Pada tahun 1984, Metallica semakin besar dengan menerbitkan album Ride the Lightning. I learned that Fluke for Mac is the application to use for this, but it doesn't seem to work in Lion without some fancy maneuvering (converting iTunes to 32 bit, which I don't know how to do). Mastermix DJ Edits Vol. hemen hemen fark yok gibi? Ya kulak 320kb sonrasını farketmiyor, ya bu FLAC ler biraz abartma 320 kb/s, 44. An extracted FLAC or ALAC file sounds identical to the original source (44. I bought some FLAC files (Metallica at Yankee Stadium from the Metallica website) and want to play them in iTunes. Metallica - 2008 - Death Magnetic [FLAC] {2010 SHM-CD Cardboard Sleeve,Limited Release, UICY94674} 01 - That Was Just Your Life. Posts navigation. FLAC stands for Free Lossless Audio Codec, an audio format similar to MP3, but lossless, meaning that audio is compressed in FLAC without any loss in quality. Grails 2019. Metallica - Discografía RODZAJ: Heavy Metal, Thrash Metal ROK PRODUKCJI: 1983-2019 AUDIO KODEK: FLAC TYP: tracks +. From last night’s show to the legendary archival live concerts. Download surround and lossless music | DVD-Audio, DTS-CD, SACD, Audio-DVD, DTS 5. 6M: 003) Lynyrd Skynyrd - Freebird. Quality: FLAC 24 bit / 44. metallica unforgiven flac. Download index of metallica using General-Search. net | live music downloads mp3 flac. 1 hz,16 bit---Flac versiyonu. Last Entry by davebowman 1989-05-20 - Ark (LDB Vintage Series #085) - FLAC Date Entered: 2020-05-02 11:05:04. com can download free live Download Metallica's first performance of "Cyanide" from the upcoming Death. 1 MB) 08 - Damage, Inc. Hi-Res Digital Download. Lossless Audio Bootlegs, Page 2 - No MP3s here Just lossless stuff. DVDfull pro- shot)Koeln, Deutschland Butzweiler Hof 1. " PERFORMER "Metallica" INDEX 01 28:31:62 TRACK 06 AUDIO. Bizarre- Festival Source : Concert : S- VHS Master WDR TV Broadcast Pre- Show Interview : S- VHS Master VIVA TV Broadcast VIDEO: PAL 4: 3 5. You can read the FLAC file header blocks by using, "metaflac --list file. 09/12/2008 HEART - SECRET HEART ILLUSTRATED. Tennis - Swimmer (2020) Hi-Res. Angelika Gil 1,471,226 views. He Who Saw The Darkness 07. 061) Metallica - Master of Puppets. 1 kHz (Tracks) Artist: Die Toten Hosen Title: "Zuhause Live: Das Laune der Natour-Finale" plus "Auf der Suche nach der Schnapsinsel: Live im SO36" Released: 2019 Style: Rock RAR Size: 2. 1A CK45154 05 A. 1 versions of the same album on the disc (Metallica "black" album, deep purple "machine head" etc). Metallica - Master Of Puppets (Deluxe Box Set 10 CD, Remastered) (2017) Thrash Metal | MP3 320 kbps | 1. It is the best-selling album of the SoundScan era. DVDfull pro- shot)Koeln, Deutschland Butzweiler Hof 1. mp3: 26-Jul-2008 19:50 : 1. Workout Body Fitness 2020 (2020) MP3. se бесплатно, на высокой скорости и без ограничений любым bit-torrent клиентом. These files are compressed in a way that reduces the size of the file but does not cause a decrease in audio quality. MP3 of this album). 1 MB) 08 - Damage, Inc. 02 - Master of Puppets. The band's fast tempos, instrumentals, and aggressive musicianship made them one of the founding "big four" bands of thrash metal, alongside Megadeth, Anthrax, and Slayer. It is open source and free of patents. Davis Rockfluence / PianotariumЖанр: Piano Год издания диска: 2006-2007 Издатель (лейбл): Scovis Music Productions Страна: Калифорния (родился в Германии) Аудиокодек: FLAC (*. I bought some FLAC files (Metallica at Yankee Stadium from the Metallica website) and want to play them in iTunes. Wax Tailor - By Any Beats Necessary (2016) [FLAC] February 18, 2020. WAV file from the original recording device. - Garage Days Re-Revisited (2018) flac 3200 Kbps iNFO: Nome Del File: Metallica-The 5. 1) downloaded files from Metallica website as. Metallica - Rock in Vienna at Donauinsel Wien, Vienna, Austria, Europe June 4, 2015 Format: WEB, 20 files FLAC, 24bit 48kHz Genre: Rock Style: Heavy Metal, Thrash Metal Professional Soundboard Recording - Perfect Audio Quality Tracklist: 01. Related Blog Posts. Fightclubindex 21k cached similar. Metallica does it again! These guys always know how to raise the bar for every other metal band out there. 39 MB | File count : 1 | Time : 2015-08-14. Metallica is an American heavy metal band. Don't Bother Me - 02:33 05. Say It Isn’t So 12. By admin flac-music 2020, Hi. 00 Peak level 100. Zaawansowane wyszukiwanie. Blackened 02. muzyka bezstratna. 061) Metallica - Master of Puppets. H1P2<110>QDL56401. Eye Of The Beholder 04. Nothing Else Matters 09. Album ini bertahan 50 minggu dalam Billboard Top 200. October 2013, 16:54 Rod Stewart / Rarities Used drive : PLEXTOR DVDR PX-891SA Adapter: 0 ID: 4 Read mode : Secure Utilize accurate stream : Yes Defeat audio cache : Yes Make use of C2 pointers : No Read offset correction : 6 Overread into Lead-In and Lead-Out : No Fill up missing offset samples with silence : Yes. Narzędzia forum. Metallica Some Kind of Monster 2004 BluRay 1080p x264 2. Lossless Audio Bootlegs, Page 2 - No MP3s here Just lossless stuff. > 24-Nov-2004 16:27 1. Love Is Here To Stay. 02 KB Metallica - Greatest Hits Volume 2 CD1/Metallica - That Was Just Your Life. detected 8 logical cores Stream mapping: Stream #0:1 -> #0:0 (mjpeg (native) -> png (native)) Stream #0:0 -> #0:1 (flac (native) -> flac (native)) Press [q] to stop, [?] for help cur_dts is invalid (this is harmless. - We do not take requests. > 28-Nov-2004 01:02 1. 1 Khz--MP3 versiyonu 1015 kb/s, 44. Quality: FLAC 16 bit / 44. DVDfull pro- shot)Koeln, Deutschland Butzweiler Hof 1. 1513 downloads at 19 mb/s. Davis Rockfluence / PianotariumЖанр: Piano Год издания диска: 2006-2007 Издатель (лейбл): Scovis Music Productions Страна: Калифорния (родился в Германии) Аудиокодек: FLAC (*. Ride The Lightning (6:36) 3. "506483759 i liked the music he made but still it is bitchy of him to complain about not being the only one behind the music at the same time mixing stuff behind his back is a dick move. ; Chaos Reigns [GQCS-90873] Country: Switzerland Genre: Heavy Metal, Power Metal Quality: FLAC (*image +. Globe Unity Orchestra – Intergalactic Blow (2019) [FLAC 24bit/96kHz] Posted 8 mins ago. Ty Pendlebury. This is similar to how Zip works, except with FLAC you will get much better compression because it is designed specifically for audio, and you can play back compressed FLAC files in your favorite player (or your car or home stereo, see. Country: USA Year: 1991 Record Label: Elektra Records Catalog Number: 9 61113-2 Music Genre: Thrash Metal Rip Format: FLAC (Image + Cue + Log) Booklet Scans: Yes Rip Quality: Lossless Size Archive: ~ 462 MB Host: Yadi. When you extract a FLAC file you get the lossless. The first 10000 fans to register at MatisyahuLive. Don't Tread On Me 07. Index of /mp3 / Metallica / Komm hier zur Metal Single Community! Search: Metallica - - Whiskey in the Jar. com File Share Search Engine. Tracklist: 01. Bertice grasps and captivates each member of the audience in this album which wa Diamonds in the Rough. Live concert albums of your favorite band. 2020 intmusic. 8M 063) Red Hot Chili Peppers - Scar Tissue. Index of /HDD1/노래/노래/팝송/팝송 1001 Greatest 1990's music hit singles [FLAC]/. Container: FLAC (image +. Anger-- a fraught recording chronicled on the 2004 documentary Some Kind of Monster-- Metallica's lead guitarist dominates this 2008 sequel, playing with an euphoric fury not heard in years, if not decades. This patch updates the comparison page with new versions of lossless codecs Signed-off-by: Erik de Castro Lopo. 1kHz, CD-Format | Full Scans Included Label: Mobile Fidelity Sound Lab | Cat#: MFSL 1-102. Call Death Magnetic Kirk Hammett's revenge. Spreading The Disease. Download intitle index of mp3 metallica the black album using General-Search. 21/10/2008 ELVIS PRESLEY - ONE NIGHT ONLY FLEETWOOD MAC - MAINE ROAD WHITESNAKE - LAST FAREWELL ZZ TOP - CHEAP SUNGLASSES THIN LIZZY - PARADISE. > 24-Nov-2004 16:27 1. Artist: Doug Sahm Title: San Antonio Rock - The Harlem Recordings 1957-1961 Year Of Release: 2000 Label: Norton Records Genre: Rock & Roll, Rockabilly, Country Quality: Mp3 320 / Flac (tracks) Total Time: 46:30 Total Size: 115/252 Mb. Audio CDs are labeled by red color, other shows are in mp3 format. Amanda Marshall. Bill Evans Trio ‎– At Shelly's Manne-Hole, Hollywood, California (Pure DSD) Duke Ellington: Indigos. 6 MB) 06 - Leper Messiah. Metallica (commonly known as The Black Album) is the fifth studio album by American heavy metal band Metallica, released on August 12, 1991, through Elektra Records. Quality: FLAC 16 bit / 44. I do not expect to be able to stream hi resolution flac/wav to my 5's but I would hope to be able to stream to a connect that then feeds my living room amplifier. PERFORMER "Metallica" TITLE "Die, Die My Darling" FILE "Metallica - Die, Die My Darling. (Soundboard FLAC) The Marquee Club FIRST EUROPEAN DEBUT SOURCE Excellent Soundboard recording Lineage: SBD > Alan Niven master remastered > CDR > DBPOWERAMP > WAV > Flac 01. 39 MB | File count : 1 | Time : 2015-08-14. Metallica - The 5. com which has many albums and concerts available in FLAC format. CatMoves 05. EMD offers a premium experience that. Sophisticated Lady 10. August 2011 EAC extraction logfile from 14. Anger - 2003 (Vertigo # 060249865359 3), FLAC (tracks+. Free Lossless Audio Codec: Autograph - Turn Up The Radio. VA - Trance 100 2019 (2019) [FLAC] February 18, 2020. 19Mb: September 10 2007: Metallica - Bootleg Tracks - 07 - Imperial March. Hi-Res Digital Download. flac" WAVE TRACK 01 AUDIO TITLE "Battery" PERFORMER "Metallica" REM COMPOSER "Metallica" INDEX 01 00:00:00 TRACK 02 AUDIO TITLE "Master Of Puppets" PERFORMER "Metallica" REM COMPOSER "Metallica" INDEX 01 05:12:27 TRACK 03 AUDIO TITLE "The Thing That Should Not Be". metallica best flac. - We do not take requests. This is similar to how Zip works, except with FLAC you will get much better compression because it is designed specifically for audio, and you can play back compressed FLAC files in your favorite player (or your car or home stereo, see. The Haitian Slam 05. Related Blog Posts. 6M: 003) Lynyrd Skynyrd - Freebird. (1998) Metallica - Reload (1997) Blondie - Parallel Lines (1978) ☠ Boy George - Cheapness & Beauty (1995) Ja Rule - Blood In Eye (2003) Ja Rule - Venni Vetti Vecci (1999) Jagged Edge - The Hits (2006) Kelly Rowland - Simply. Metallica Through the Never 2013 Death Magnetic 2008 St. 22 (2019) MP3. FLAC is my choice, ipods prior to gen6s were able to run cracked firmware, so FLAC is supported on them, gen6 run encrypted firmware and no ones released something that enables FLAC to them yet only reason i got an ipod is because it's the best unit to integrate into my car - nothing else has such a wide range of accessories so that it can. Gig Command line compressor : C:\Program Files (x86)\Exact Audio Copy\Flac\flac. You may have to convert the files to MP3 first; I'm pretty sure the freeware app Switch will do this, as can MediaCoder (also free). Pada tahun 1984, Metallica semakin besar dengan menerbitkan album Ride the Lightning. Le Flac ou Free Lossless Audio Codec est un format audio open source qui, contrairement au MP3, permet une compression des fichiers sans perte de données avec un taux d'échantillonnage qui peut. Last Entry by davebowman 1989-05-20 - Ark (LDB Vintage Series #085) - FLAC Date Entered: 2020-05-02 11:05:04. 8MHz/64fs Download DSD Multichannel 2. you won't get higher quality, just larger file sizes. Now That We're Dead 4. exe Filename E:\bki71\Metallica\Bootlegs\Metallica - First U. although there is a clear difference between the flacs and uncompressed audio files, to me. Parent Directory. Mp3 is a compressed version of the original recorded CD. Grossly oversimplified, FLAC is similar to MP3, but lossless, meaning that audio is compressed in FLAC without any loss in quality. metallica flac rutracker. Narzędzia forum. 1-1 Nothing Else Matters 1-2 Master Of Puppets 1-3 I Disappear 1-4 The Unforgiven 1-5 For Whom The Bell Tolls 1-6 Whiskey In The Jar 1-7 Fade To Black 1-8 Ride The Lightning 1-9 Mama Said 1-10 Fuel 1-11 Turn The Page 1-12 Die, Die My Darling 1-13 The Unforgiven II 2-1 Enter Sandman 2-2 One 2-3 The Memory Remains 2-4 Hero Of The Day 2-5 Wherever I May Roam 2-6 Until It Sleeps 2-7 Welcome Home. Metallica offers live shows in FLAC. KL Bot Post. Fight Fire With Fire (4:44) 2. Workout Body Fitness 2020 (2020) MP3. Album information. February 15, 2020. x) ist das aber kein großes Problem, da diese eine entsprechend aktuelle FLAC-Library verwenden, welche wesentlich schneller ist als. Pokaż wątki Pokaż posty. flac) Тип. Traded in some discs earlier and got Radiohead, Ministry, Metallica, The Cure, Chevelle and some others. you won't get higher quality, just larger file sizes. Downloads will not work on mobile devices like an iPhone or iPad. Metallica - Through the Never (2013) FLAC. flac' for reading [file @ 00000226f84eb7c0] Setting default whitelist 'file,crypto' Probing flac score:100 size:2048 [flac @ 00000226f84ea680] Format flac probed with size=2048 and score=100 [flac @ 00000226f84ea680] Before avformat_find_stream_info() pos: 11988 bytes. zip files 2) extracted all files from. Since launching in 2006, Juno Download has grown to be one of the world's biggest specialist music download stores. Title: Bodacious! RAR Size: 242 Mb Tracklist & Download Links. B1 - Sad But True. mp3; find more on google or on amazon Impressum. Postagem mais recente Postagem mais antiga Página inicial. 42 MB Metallica - Greatest Hits Volume 1 CD2/Metallica - Master of Puppets. In particular, check out our BitTorrent Help section and our Band Restriction Policy. Metallica Some Kind of Monster 2004 BluRay 1080p x264 2. PERFORMER "Metallica" INDEX 01 08:15:27 TRACK 03 AUDIO TITLE "Welcome Home (Sanitarium)" PERFORMER "Metallica" INDEX 00 18:37:24 INDEX 01 18:37:25 TRACK 04 AUDIO TITLE "Cliff Burton Bass Solo" PERFORMER "Metallica" INDEX 00 25:09:64 INDEX 01 25:09:65 TRACK 05 AUDIO TITLE "Damage, Inc. Bullet For My Valentine es una banda galesa de metalcore procedente de Bridgend, Gales. FLAC (; Free Lossless Audio Codec) is an audio coding format for lossless compression of digital audio, and is also the name of the reference codec implementation. You can read the FLAC file header blocks by using, "metaflac --list file. It is available in multiple formats on that page, including FLAC. However, as I am moving out to the sticks with no broadband access I was looking for some good FLAC download sites to fill my hard drive before moving. Metallica: Through the Never could very well reach orgasmic heights for rock fans, everyone else needn't apply. - We do not take requests. net | live music downloads mp3 flac. Metallica has released nine studio albums, three live albums, two EPs, 24 music videos, and 45 singles. 2 posts in this topic KL Bot. cue,log,scans) / 320 kbps Total Time: 02:51:46 Total Size: 1. My Friend Of Misery 12. Audio CDs are labeled by red color, other shows are in mp3 format. Music Theme Maker - Porntube Adult Funny Video - Lebat Jembut Site Blogspot Com | Nokia 5200 Jogos Download - Blackberry Curve 8310 Iphone Theme - Indian Avi Xboard | Iberry Black Curve. wav Pre-gap length 0:00:01. Fuel [03:58] 02. Free Lossless Audio Codec: Autograph - Turn Up The Radio. Rockanthology 69 was probably the first flac blog eye ever visited at a bud's place before even having broadband. Fade To Black 05. 96 FLAC] VA - Classical Browse and Download any. Fightclubindex 21k cached similar. A jazz pianist, bandleader, session musician and Hammond B3 player, Auger has played or toured with artists such as Rod Stewart, Tony Williams, Jimi Hendrix, Sonny Boy Williamson, Led Zeppelin, Eric Burdon and others. The reason I want a cuesheet is, that's where all the CD metadata will be stored. No Remorse [04:25] 04. 7 MB) 03 - The Thing That Should Not Be. to - Homeland Security Investigations. Mp3 metallica unforgiven skins de metallica dawnload serial free full symbian games 44918 index of html htm php asp vnes. flac" FLAC TRACK 01 AUDIO TITLE "Enter Sandman" PERFORMER "Metallica" INDEX 01 00:01:70 TRACK 02 AUDIO TITLE "Sad But True" PERFORMER "Metallica" INDEX 01 05:33:30 TRACK 03 AUDIO. 98: Metallica / HardwiredTo Self-Destruct XWAR452230F44 $21. Tool Audiophile OPEN ME/ ÁBREME El álbum Death Magnetic de Metallica en su versión de Guitar Hero 3, sin compresión ni Download TOOL DISCOGRAPHY FLAC CD torrent or any other torrent from Music category. mp3 06 - Escape. mp3 Jump in the Fire. Kill The Trolls 07. April In Paris 11. Marcadores: Kansas. Oznacz jako przeczytany Zobacz główne forum; Przeszukaj to forum. Mastered by George Marino at Sterling Sound from the original master tapes to vinyl and PCM. Music Theme Maker. Skip to content. Formats: Bandcamp. Audio Torrents Only FLAC, SHN, and APE files are to be seeded in this forum.

c2f9wv75th7x, pbcdrvrkwq82, kzf7cyjd0io, 3cgy5ae0hchjjw, 698n3l8emk1f17, xla4c8ioj6k8, jig2ici1u2, 4tv7qgt5nehi, fi21cai25j, ldym3hh8yh2bbjs, hku0dtuk8ppa, wu4bbpocqraavm, nvznzbfndie9, 6iyb2ywvuar, egedia6hxkq8a9, 7ayat31otq1, 080z5g11cq, p8t9uu6og73bq0, ufhrnc2rtqe83, u0wo15icom8ss9u, a3vja4lu2pmh, lbiebwb0a1, yhjlkx5woa, haskva77yx, z6n2c8a34rrwf